[无字]CCTVB 万千星辉贺台庆 2016-11-19【粤语无字 | TVRIP | 1.67G】【TVB 五十周年】【貌似音视频有不同步】


总分3.0
  • 评分:2人参与评分
  • 分级: 资源
  • 类型:综艺娱乐
  • 格式:[TVRip]
  • 发行时间:2016年
  • 地区/语言:香港(粤语)
  • 统计:17830次 浏览
  • 时间:2016-11-21 18:51:07发布 | 2016-12-22 22:39:03更新

电骡资源

简介

magnet:?xt=urn:btih:cfe7092bc5ce5f4f1ccacc6362c987b5b323e951&dn=TVBOXNOW 萬千星輝賀台慶 H265_2016-11-19






General
Complete name                  : TVBOXNOW 萬千星輝賀台慶 H265_2016-11-19.mp4
Format                         : MPEG-4
Format profile                 : Base Media / Version 2
Codec ID                       : mp42
File size                      : 1.67 GiB
Duration                       : 1h 33mn
Overall bit rate mode          : Variable
Overall bit rate               : 2 577 Kbps
Encoded date                   : UTC 2016-11-19 14:43:07
Tagged date                    : UTC 2016-11-19 14:43:07
Writing application            : TMPGEnc Video Mastering Works 6 Version. 6.1.5.26

Video
ID                             : 2
Format                         : HEVC
Format/Info                    : High Efficiency Video Coding
Format profile                 : Main@L4@High
Codec ID                       : hvc1
Codec ID/Info                  : High Efficiency Video Coding
Duration                       : 1h 33mn
Bit rate                       : 2 446 Kbps
Width                          : 1 280 pixels
Height                         : 720 pixels
Display aspect ratio           : 16:9
Frame rate mode                : Constant
Frame rate                     : 50.000 fps
Standard                       : Component
Color space                    : YUV
Chroma subsampling             : 4:2:0
Bit depth                      : 8 bits
Bits/(Pixel*Frame)             : 0.053
Stream size                    : 1.59 GiB (95%)
Writing library                : x265 :[Windows][MSVC 1800][64 bit]
Encoding settings              : wpp / ctu=64 / min-cu-size=8 / max-tu-size=32 / tu-intra-depth=1 / tu-inter-depth=1 / me=1 / subme=2 / merange=57 / no-rect / no-amp / max-merge=2 / temporal-mvp / no-early-skip / rdpenalty=0 / no-tskip / no-tskip-fast / no-strong-intra-smoothing / no-lossless / no-cu-lossless / no-constrained-intra / no-fast-intra / open-gop / no-temporal-layers / interlace=0 / keyint=300 / min-keyint=30 / scenecut=40 / rc-lookahead=20 / lookahead-slices=4 / bframes=3 / bframe-bias=0 / b-adapt=2 / ref=7 / limit-refs=3 / no-limit-modes / weightp / no-weightb / aq-mode=1 / qg-size=64 / aq-strength=1.00 / cbqpoffs=0 / crqpoffs=0 / rd=3 / psy-rd=2.00 / rdoq-level=0 / psy-rdoq=0.00 / signhide / deblock / sao / no-sao-non-deblock / no-b-pyramid / cutree / no-intra-refresh / rc=abr / bitrate=2400000 / qcomp=0.60 / qpmin=0 / qpmax=51 / qpstep=4 / vbv-maxrate=27500000 / vbv-bufsize=27500000 / ipratio=1.40 / pbratio=1.30
Encoded date                   : UTC 2016-11-19 14:43:07
Tagged date                    : UTC 2016-11-19 14:43:07
Color range                    : Limited
Color primaries                : BT.709
Transfer characteristics       : BT.709
Matrix coefficients            : BT.709

Audio
ID                             : 1
Format                         : AAC
Format/Info                    : Advanced Audio Codec
Format profile                 : LC
Codec ID                       : 40
Duration                       : 1h 33mn
Bit rate mode                  : Variable
Bit rate                       : 125 Kbps
Maximum bit rate               : 576 Kbps
Channel(s)                     : 2 channels
Channel positions              : Front: L R
Sampling rate                  : 48.0 KHz
Compression mode               : Lossy
Stream size                    : 83.5 MiB (5%)
Encoded date                   : UTC 2016-11-19 14:43:07
Tagged date                    : UTC 2016-11-19 14:43:07




TVBOXNOW 萬千星輝賀台慶 H265_2016-11-19.mp4
File size: 1.67 GB
CRC32: 9856acbb
MD5: f66127b89109a837c84adf670d6e1ee7
SHA1: 42f9049156a23fe82768f8c20920e4a93a777de0
ED2K: d94d2eb6a7b6d4e3e5ee6402a172d358


楼主最新资源

资源评论

  •   2016-11-26 19:03:16

    纠正:应该是TVB四十九周年

  •   2016-12-22 22:39:03

    确实音轨不同步,但清晰度还可以

我要评论

资源评分: 很好 不错 一般 较差 很差
  • 小贴士:

  • 1. 类似“顶”、“沙发”之类没有营养的文字,对勤劳贡献的楼主来说是令人沮丧的反馈信息。
  • 2. 提问之前请再仔细看一遍楼主的说明,或许是您遗漏了。
  • 3. 勿催片。请相信骡友们对分享是富有激情的,如果确有更新版本,您一定能搜索到。
  • 4. 请勿到处挖坑绊人、招贴广告。即占空间让人厌烦,又没人会搭理,于人于己都无利。
  • 如果您发现自己的评论不见了,请参考以上4条。

推荐资源

点击复制本页面地址给QQ/MSN/Gtalk好友

楼主信息...
更多
你可能喜欢的
关于我们 / 人才招募 / 商务合作 / 版权声明 / / 快手排行榜
分享资源 | 请在遵循创作共用的约定下使用本站内容
©2006-2012 QvoCD.ORG Inc. All rights Reserved.