RTHK铿锵集-20161226颠倒的时代[粤语中字/AVI/1.07G]


总分0.0
  • 评分:0人参与评分
  • 分级: 资源
  • 类型:综艺娱乐
  • 格式:[TVRip]
  • 发行时间:2016年
  • 地区/语言:香港(粤语)
  • 统计:6113次 浏览
  • 时间:2016-12-28 19:44:28发布 | 2016-12-28 19:44:28更新

电骡资源

简介

 铿锵集 - 颠倒的时代 2016-12-26


http://podcast.rthk.hk/podcast/item_epi.php?pid=244


由2015年7月9日起,全国有不同地区的律师、律师助理、维权人士、家属等,突然被公安局拘捕,约谈、限制出境、或限制人身自由。受影响人士超过300人,涉及24个省份。至今仍有16人被拘留,外界舆论称为「709大抓捕事件」。这次被评为中国人权法治的大倒退,亦视为「六四事件」后最大规模的拘捕及审判政治异见者行动。被捕律师代理的人权案件,多涉及言论自由、宗教信仰自由、政治异见事件等等,有部份至今仍然不审不判,连会见辩护律师,与家人通信的权利都被剥夺。丈夫被失踪五百多天,作为太太,她们如何一路走来?


 编导:陈颖忻



【电视直播版】

magnet:?xt=urn:btih:3ad0927afe89b6de04ebdef7887065e0a8eb07bd&dn=TVBOXNOW 鏗鏘集 2016-12-26.avi - 1.07 G


http://pan.baidu.com/s/1boUEdAZ


【RTHK官网podcast版】

http://archive1.rthk.hk/mp4/tv/2016/THKCCT2016M03901679_h.mp4



General
Complete name                  : TVBOXNOW 鏗鏘集 2016-12-26.avi
Format                         : AVI
Format/Info                    : Audio Video Interleave
Format profile                 : OpenDML
File size                      : 1.07 GiB
Duration                       : 22mn 34s
Overall bit rate               : 6 760 Kbps
Writing application            : Lavf54.63.104

Video
ID                             : 0
Format                         : AVC
Format/Info                    : Advanced Video Codec
Format profile                 : Main@L4.1
Format settings, CABAC         : Yes
Format settings, ReFrames      : 1 frame
Codec ID                       : H264
Duration                       : 22mn 34s
Bit rate                       : 6 551 Kbps
Nominal bit rate               : 12.0 Mbps
Width                          : 852 pixels
Height                         : 480 pixels
Display aspect ratio           : 16:9
Frame rate mode                : Variable
Frame rate                     : 25.000 fps
Color space                    : YUV
Chroma subsampling             : 4:2:0
Bit depth                      : 8 bits
Scan type                      : Progressive
Bits/(Pixel*Frame)             : 0.641
Stream size                    : 1.03 GiB (97%)
Writing library                : x264 core 129
Encoding settings              : cabac=1 / ref=1 / deblock=1:0:0 / analyse=0x1:0x131 / me=dia / subme=2 / psy=1 / psy_rd=1.00:0.00 / mixed_ref=0 / me_range=16 / chroma_me=1 / trellis=0 / 8x8dct=0 / cqm=0 / deadzone=21,11 / fast_pskip=1 / chroma_qp_offset=0 / threads=8 / lookahead_threads=1 / sliced_threads=0 / nr=0 / decimate=1 / interlaced=0 / bluray_compat=0 / constrained_intra=0 / bframes=0 / weightp=2 / keyint=250 / keyint_min=25 / scenecut=40 / intra_refresh=0 / rc_lookahead=40 / rc=abr / mbtree=1 / bitrate=12000 / ratetol=1.0 / qcomp=0.60 / qpmin=10 / qpmax=51 / qpstep=4 / ip_ratio=1.41 / aq=1:1.00

Audio
ID                             : 1
Format                         : MPEG Audio
Format version                 : Version 1
Format profile                 : Layer 3
Mode                           : Joint stereo
Mode extension                 : MS Stereo
Codec ID                       : 55
Codec ID/Hint                  : MP3
Duration                       : 22mn 34s
Bit rate mode                  : Constant
Bit rate                       : 192 Kbps
Channel(s)                     : 2 channels
Sampling rate                  : 48.0 KHz
Compression mode               : Lossy
Stream size                    : 31.0 MiB (3%)
Alignment                      : Aligned on interleaves
Interleave, duration           : 24 ms (0.60 video frame)



楼主最新资源

资源评论

我要评论

资源评分: 很好 不错 一般 较差 很差
  • 小贴士:

  • 1. 类似“顶”、“沙发”之类没有营养的文字,对勤劳贡献的楼主来说是令人沮丧的反馈信息。
  • 2. 提问之前请再仔细看一遍楼主的说明,或许是您遗漏了。
  • 3. 勿催片。请相信骡友们对分享是富有激情的,如果确有更新版本,您一定能搜索到。
  • 4. 请勿到处挖坑绊人、招贴广告。即占空间让人厌烦,又没人会搭理,于人于己都无利。
  • 如果您发现自己的评论不见了,请参考以上4条。

推荐资源

点击复制本页面地址给QQ/MSN/Gtalk好友

楼主信息...
更多
你可能喜欢的
关于我们 / 人才招募 / 商务合作 / 版权声明 / / 快手排行榜
分享资源 | 请在遵循创作共用的约定下使用本站内容
©2006-2012 QvoCD.ORG Inc. All rights Reserved.