[音乐会]《釜山同一个亚洲文化节》2016-10[韩语中字/TV(ViuTV)/927MB/画质一般/2016-12-25播]


总分0.0
  • 评分:0人参与评分
  • 分级: 资源
  • 类型:综艺娱乐
  • 格式:[TVRip]
  • 发行时间:2016年
  • 地区/语言:韩国(韩语)
  • 统计:11471次 浏览
  • 时间:2016-12-28 20:25:51发布 | 2016-12-28 20:25:51更新

电骡资源

简介

【BT磁力】

magnet:?xt=urn:btih:7c10bbd4f8422c67c40ba44c3e6c35848b7204a4&dn=TVBOXNOW ViuTV 釜山同一個亞洲文化節 2016-12-25.mp4 - 927.28 MB



(注:这是纯音乐会,对韩流不感冒,应该是真唱吧?第30分钟女子团体唱那歌还可以)


https://www.viu.tv/readtv/hon-mai-bit-tai-foo-saan-tung-yat-goh-a-jau-man-fa-jit-wong-gam-jan-yung-dang-cheung


简介:

姊妹们要到韩国追星,除了首尔之外,釜山也是好地方!


釜山,作为韩国最大的沿海城市,拥有得天独厚的天然资源和优越条件,当地自2014年起举办一系列韩流活动,把釜山旅游产业与韩流庆典活动相结合,在推动韩流的同时宣传「釜山之美」,决意要将这个美丽的海湾打造成新韩流集中地。


今年的「釜山同一个亚洲文化节」就是釜山旅游与韩流文化结合的庆典,也是集k-pop、k-food、k-beauty于一身的韩流综合活动,在一连串的节目当中,大家最关注的当然是阵容强大、汇聚红星的「同一个亚洲开幕演唱会」,ViuTV将会一连两晚播放当日的精彩表演,各位韩迷准备黐实电视机了!





General
Complete name                  : TVBOXNOW ViuTV 釜山同一個亞洲文化節\TVBOXNOW ViuTV 釜山同一個亞洲文化節 2016-12-25.mp4
Format                         : MPEG-4
Format profile                 : Base Media
Codec ID                       : isom
File size                      : 927 MiB
Duration                       : 1h 24mn
Overall bit rate               : 1 534 Kbps
Writing application            : Lavf57.27.100

Video
ID                             : 1
Format                         : AVC
Format/Info                    : Advanced Video Codec
Format profile                 : High@L3.1
Format settings, CABAC         : Yes
Format settings, ReFrames      : 4 frames
Codec ID                       : avc1
Codec ID/Info                  : Advanced Video Coding
Duration                       : 1h 24mn
Bit rate                       : 1 400 Kbps
Width                          : 1 280 pixels
Height                         : 720 pixels
Display aspect ratio           : 16:9
Frame rate mode                : Constant
Frame rate                     : 25.000 fps
Color space                    : YUV
Chroma subsampling             : 4:2:0
Bit depth                      : 8 bits
Scan type                      : Progressive
Bits/(Pixel*Frame)             : 0.061
Stream size                    : 845 MiB (91%)
Writing library                : x264 core 148 r2665 a01e339
Encoding settings              : cabac=1 / ref=3 / deblock=1:0:0 / analyse=0x3:0x113 / me=hex / subme=7 / psy=1 / psy_rd=1.00:0.00 / mixed_ref=1 / me_range=16 / chroma_me=1 / trellis=1 / 8x8dct=1 / cqm=0 / deadzone=21,11 / fast_pskip=1 / chroma_qp_offset=-2 / threads=12 / lookahead_threads=2 / sliced_threads=0 / nr=0 / decimate=1 / interlaced=0 / bluray_compat=0 / constrained_intra=0 / bframes=3 / b_pyramid=2 / b_adapt=1 / b_bias=0 / direct=1 / weightb=1 / open_gop=0 / weightp=2 / keyint=250 / keyint_min=25 / scenecut=40 / intra_refresh=0 / rc_lookahead=40 / rc=cbr / mbtree=1 / bitrate=1400 / ratetol=1.0 / qcomp=0.60 / qpmin=0 / qpmax=69 / qpstep=4 / vbv_maxrate=1400 / vbv_bufsize=6000 / nal_hrd=none / filler=0 / ip_ratio=1.40 / aq=1:1.00

Audio
ID                             : 2
Format                         : AAC
Format/Info                    : Advanced Audio Codec
Format profile                 : LC
Codec ID                       : 40
Duration                       : 1h 24mn
Bit rate mode                  : Constant
Bit rate                       : 132 Kbps
Channel(s)                     : 2 channels
Channel positions              : Front: L R
Sampling rate                  : 48.0 KHz
Compression mode               : Lossy
Stream size                    : 78.5 MiB (8%)




楼主最新资源

资源评论

我要评论

资源评分: 很好 不错 一般 较差 很差
  • 小贴士:

  • 1. 类似“顶”、“沙发”之类没有营养的文字,对勤劳贡献的楼主来说是令人沮丧的反馈信息。
  • 2. 提问之前请再仔细看一遍楼主的说明,或许是您遗漏了。
  • 3. 勿催片。请相信骡友们对分享是富有激情的,如果确有更新版本,您一定能搜索到。
  • 4. 请勿到处挖坑绊人、招贴广告。即占空间让人厌烦,又没人会搭理,于人于己都无利。
  • 如果您发现自己的评论不见了,请参考以上4条。

推荐资源

点击复制本页面地址给QQ/MSN/Gtalk好友

楼主信息...
更多
你可能喜欢的
关于我们 / 人才招募 / 商务合作 / 版权声明 / / 快手排行榜
分享资源 | 请在遵循创作共用的约定下使用本站内容
©2006-2012 QvoCD.ORG Inc. All rights Reserved.