第1集《野性伊比利亚》(Wild Iberia)2016[西班牙纪录片/TV(明珠台台)/MP4/720p/粤语配音中字/569MB]


总分1.0
  • 评分:1人参与评分
  • 分级: 资源
  • 类型:科教记录
  • 格式:[TVRip]
  • 发行时间:2014年
  • 地区/语言:西班牙(粤语)
  • 统计:11845次 浏览
  • 时间:2016-12-30 20:56:07发布 | 2016-12-30 20:58:20更新

电骡资源

简介

http://www.imdb.com/title/tt6103244/


http://mytv.tvb.com/tc/ed_autolatestcatchupprogrammeview/wildiberia/288650


【BT磁力】

magnet:?xt=urn:btih:13cceda98f265723f5504e477f8a986e6324de15&dn=TVBOXNOW 野性伊比利亞 EP01.mp4 - 569.53 MB



简介:


春天 – 在伊比利亚半岛,太阳露脸,大自然也甦醒, 所有生物准备好恋爱和交配……初生动物到处都是,建造巢穴或陷阱的动物也在努力……虽然表面看来美好,但这是艰难的时候: 竞争激烈,对过度繁殖的动物来说,这是残酷的季节。



General
Complete name                  : TVBOXNOW 野性伊比利亞\TVBOXNOW 野性伊比利亞 EP01.mp4
Format                         : MPEG-4
Format profile                 : Base Media
Codec ID                       : isom
File size                      : 570 MiB
Duration                       : 46mn 36s
Overall bit rate               : 1 708 Kbps
Writing application            : Lavf54.63.104

Video
ID                             : 1
Format                         : AVC
Format/Info                    : Advanced Video Codec
Format profile                 : Main@L3.2
Format settings, CABAC         : Yes
Format settings, ReFrames      : 1 frame
Codec ID                       : avc1
Codec ID/Info                  : Advanced Video Coding
Duration                       : 46mn 36s
Bit rate                       : 1 593 Kbps
Width                          : 1 280 pixels
Height                         : 720 pixels
Display aspect ratio           : 16:9
Frame rate mode                : Variable
Frame rate                     : 25.000 fps
Minimum frame rate             : 16.667 fps
Maximum frame rate             : 50.000 fps
Color space                    : YUV
Chroma subsampling             : 4:2:0
Bit depth                      : 8 bits
Scan type                      : Progressive
Bits/(Pixel*Frame)             : 0.069
Stream size                    : 525 MiB (92%)
Writing library                : x264 core 129
Encoding settings              : cabac=1 / ref=1 / deblock=1:0:0 / analyse=0x1:0x131 / me=dia / subme=2 / psy=1 / psy_rd=1.00:0.00 / mixed_ref=0 / me_range=16 / chroma_me=1 / trellis=0 / 8x8dct=0 / cqm=0 / deadzone=21,11 / fast_pskip=1 / chroma_qp_offset=0 / threads=8 / lookahead_threads=1 / sliced_threads=0 / nr=0 / decimate=1 / interlaced=0 / bluray_compat=0 / constrained_intra=0 / bframes=0 / weightp=2 / keyint=250 / keyint_min=25 / scenecut=40 / intra_refresh=0 / rc_lookahead=40 / rc=abr / mbtree=1 / bitrate=1593 / ratetol=1.0 / qcomp=0.60 / qpmin=10 / qpmax=51 / qpstep=4 / ip_ratio=1.41 / aq=1:1.00

Audio
ID                             : 2
Format                         : AAC
Format/Info                    : Advanced Audio Codec
Format profile                 : LC
Codec ID                       : 40
Duration                       : 46mn 36s
Duration_FirstFrame            : 64ms
Bit rate mode                  : Constant
Bit rate                       : 128 Kbps
Channel(s)                     : 2 channels
Channel positions              : Front: L R
Sampling rate                  : 48.0 KHz
Compression mode               : Lossy
Stream size                    : 42.7 MiB (7%)



楼主最新资源

资源评论

  •   2016-12-30 20:58:20

    截图 http://pic.yupoo.com/appcht/G75fNYwF/8ecBt.jpg

我要评论

资源评分: 很好 不错 一般 较差 很差
  • 小贴士:

  • 1. 类似“顶”、“沙发”之类没有营养的文字,对勤劳贡献的楼主来说是令人沮丧的反馈信息。
  • 2. 提问之前请再仔细看一遍楼主的说明,或许是您遗漏了。
  • 3. 勿催片。请相信骡友们对分享是富有激情的,如果确有更新版本,您一定能搜索到。
  • 4. 请勿到处挖坑绊人、招贴广告。即占空间让人厌烦,又没人会搭理,于人于己都无利。
  • 如果您发现自己的评论不见了,请参考以上4条。

推荐资源

点击复制本页面地址给QQ/MSN/Gtalk好友

楼主信息...
更多
你可能喜欢的
关于我们 / 人才招募 / 商务合作 / 版权声明 / / 快手排行榜
分享资源 | 请在遵循创作共用的约定下使用本站内容
©2006-2012 QvoCD.ORG Inc. All rights Reserved.