《凌迟考》(Lingchi)2002[AVI/324MB]


总分0.0
  • 评分:0人参与评分
  • 分级: 资源
  • 类型:亚洲电影
  • 格式:[AVI]
  • 发行时间:2002年
  • 地区/语言:台湾()
  • 统计:1218次 浏览
  • 时间:2017-01-11 21:27:35发布 | 2017-01-11 21:27:35更新

电骡资源

简介

http://www.artlinkart.com/cn/article/overview/671iwCt/genres/critique/B



【BT磁力】  (待做种)

magnet:?xt=urn:btih:9e8ad0bcb3e6fcec0163b3b01dd02412e7860af9


【百度网盘】


未解压  https://pan.baidu.com/share/init?shareid=1989872330&uk=824247300  提取密码:37ds  解压密码:raremovie


已解压   http://pan.baidu.com/s/1nuGhuo5




凌迟考   凌遲考 (2002)


导演: 陈界仁
制片国家/地区: 台湾

类型:纪录片
语言: 无对白
上映日期: 2002
片长: 22分钟
又名: 凌迟考:一张历史照片的回音 / Lingchi

剧情:

   陈界仁的〈凌迟考〉以冷静而壮烈的方式,控诉台湾长期以来遭受西方各种「殖民」形式的历程。〈凌迟考〉的影像彷彿集体记忆中的梦的影像,潜藏于观者的「集体潜意识」,挑战观者的回应与记忆。〈凌迟考〉用缓慢而诗意的速度以三个银幕放映,将历史和台湾当代社会连结起来。〈凌迟考〉的影像是介于疯狂、极度痛苦与彷如圣灵充满的狂喜的暧昧混合。虽然影像来自一幅当初很少人知晓的历史文件,在「凌迟刑罚」早已被禁止,在人间消失的二十一世纪初,对这样的凌迟刑罚过程的观看经验也彷彿观看地狱图像的经验。而刻意放缓进行的影像由于背负庞杂交叉的历史与意涵(殖民的、历史的、影像史的、影像本质的、刑罚的、观看、暴力美学等等),使观者不得不进行凝视──凝视历史,也凝视自己。艺术家希望以独特的方式,例如缓慢进行的手法与调子,引起观者的深刻凝视;针对「凌迟」的刑罚形式,重新加以凝视与再现,并将其扩大演绎为一道隐喻,影射全球化意图下的第一世界霸权之于弱势者的权力关系。



【截图】http://pic.yupoo.com/appcht/G8RYcMqq/xUdhy.jpg




General
Complete name                  : [台湾纪录片][凌迟考 Lingchi(2002)][陈界仁][AVI-324MB][720x540][、眼泪@raremovie].avi
Format                         : AVI
Format/Info                    : Audio Video Interleave
File size                      : 325 MiB
Duration                       : 22mn 28s
Overall bit rate               : 2 020 Kbps
Writing application            : Lavf56.25.101

Video
ID                             : 0
Format                         : MPEG-4 Visual
Format profile                 : Simple@L1
Format settings, BVOP          : No
Format settings, QPel          : No
Format settings, GMC           : No warppoints
Format settings, Matrix        : Default (H.263)
Codec ID                       : FMP4
Duration                       : 22mn 28s
Bit rate                       : 1 878 Kbps
Width                          : 720 pixels
Height                         : 540 pixels
Display aspect ratio           : 4:3
Frame rate                     : 29.970 fps
Color space                    : YUV
Chroma subsampling             : 4:2:0
Bit depth                      : 8 bits
Scan type                      : Progressive
Compression mode               : Lossy
Bits/(Pixel*Frame)             : 0.161
Stream size                    : 302 MiB (93%)
Writing library                : Lavc56.26.100

Audio
ID                             : 1
Format                         : MPEG Audio
Format version                 : Version 1
Format profile                 : Layer 3
Mode                           : Joint stereo
Mode extension                 : MS Stereo
Codec ID                       : 55
Codec ID/Hint                  : MP3
Duration                       : 22mn 28s
Bit rate mode                  : Constant
Bit rate                       : 128 Kbps
Channel(s)                     : 2 channels
Sampling rate                  : 48.0 KHz
Compression mode               : Lossy
Stream size                    : 20.6 MiB (6%)
Alignment                      : Aligned on interleaves
Interleave, duration           : 24 ms (0.72 video frame)
Interleave, preload duration   : 24 ms
Writing library                : LAME3.99.5



[台湾纪录片][凌迟考 Lingchi(2002)][陈界仁][AVI-324MB][720x540][、眼泪@raremovie].avi
File size: 324.66 MB
CRC32: fa0801a7
MD5: 7dc63d1c1d6429a9056395866b6f885e
SHA1: a1a279e853df6579fbdc72a46b9e761a2b73f0c3
ED2K: d009c5c74640f8b6cf456442c771588a



楼主最新资源

资源评论

我要评论

资源评分: 很好 不错 一般 较差 很差
  • 小贴士:

  • 1. 类似“顶”、“沙发”之类没有营养的文字,对勤劳贡献的楼主来说是令人沮丧的反馈信息。
  • 2. 提问之前请再仔细看一遍楼主的说明,或许是您遗漏了。
  • 3. 勿催片。请相信骡友们对分享是富有激情的,如果确有更新版本,您一定能搜索到。
  • 4. 请勿到处挖坑绊人、招贴广告。即占空间让人厌烦,又没人会搭理,于人于己都无利。
  • 如果您发现自己的评论不见了,请参考以上4条。

推荐资源

  • [MKV] 阿姨 My Aunt 2016 全版
点击复制本页面地址给QQ/MSN/Gtalk好友

楼主信息...
更多
你可能喜欢的
关于我们 / 人才招募 / 商务合作 / 版权声明 / / 快手排行榜
分享资源 | 请在遵循创作共用的约定下使用本站内容
©2006-2012 QvoCD.ORG Inc. All rights Reserved.