《希特勒:职业生涯》(Hitler - Eine Karriere)1977[MKV/2.26G/中文字幕]


总分0.0
  • 评分:0人参与评分
  • 分级: 资源
  • 类型:
  • 格式:[MKV]
  • 发行时间:1977年
  • 地区/语言:德国(英语)
  • 统计:818次 浏览
  • 时间:2017-01-11 21:35:52发布 | 2017-01-11 21:35:52更新

电骡资源

简介

http://www.imdb.com/title/tt0191182/      (7.6/10 from 413 users)



【BT磁力】  (待做种)

magnet:?xt=urn:btih:3f146b704ce3021ab7125e20c965f333a4c51a46


【百度网盘】 http://pan.baidu.com/s/1dFGDOxN



希特勒:职业生涯 Hitler - eine Karriere (1977)


导演: 约阿希姆·费斯特 / Christian Herrendoerfer
主演: Gert Westphal / Stephen Murray / Artur Axmann / 阿尔伯特·爱因斯坦
类型: 纪录片
制片国家/地区: 西德
语言: 德语
上映日期: 1978-03-23
片长: USA: 150 分钟 / Germany: 155 分钟(DVD version)



【截图】http://pic.yupoo.com/appcht/G8RkWr5G/tbL3U.jpg



General
Unique ID                      : 168348648403719580577546155723716462494 (0x7EA6C532C2870C1E037BA147C20E879E)
Complete name                  : [西德纪录片][希特勒:职业生涯 Hitler - Eine Karriere(1977)][MKV-2.26G][中文字幕][720x540].mkv
Format                         : Matroska
Format version                 : Version 2
File size                      : 2.27 GiB
Duration                       : 2h 30mn
Overall bit rate               : 2 157 Kbps
Writing application            : Lavf51.12.1
Writing library                : Lavf51.12.1

Video
ID                             : 1
Format                         : AVC
Format/Info                    : Advanced Video Codec
Format profile                 : Baseline@L1.3
Format settings, CABAC         : No
Format settings, ReFrames      : 1 frame
Codec ID                       : V_MPEG4/ISO/AVC
Duration                       : 2h 30mn
Bit rate                       : 1 987 Kbps
Width                          : 720 pixels
Height                         : 540 pixels
Display aspect ratio           : 4:3
Frame rate mode                : Constant
Frame rate                     : 23.976 fps
Color space                    : YUV
Chroma subsampling             : 4:2:0
Bit depth                      : 8 bits
Scan type                      : Progressive
Bits/(Pixel*Frame)             : 0.213
Stream size                    : 2.09 GiB (92%)
Default                        : Yes
Forced                         : No

Audio
ID                             : 2
Format                         : MPEG Audio
Format version                 : Version 1
Format profile                 : Layer 3
Mode                           : Joint stereo
Mode extension                 : MS Stereo
Codec ID                       : A_MPEG/L3
Codec ID/Hint                  : MP3
Duration                       : 2h 30mn
Bit rate mode                  : Constant
Bit rate                       : 128 Kbps
Channel(s)                     : 2 channels
Sampling rate                  : 44.1 KHz
Compression mode               : Lossy
Stream size                    : 138 MiB (6%)
Writing library                : LAME3.97
Default                        : Yes
Forced                         : No




[西德纪录片][希特勒:职业生涯 Hitler - Eine Karriere(1977)][MKV-2.26G][中文字幕][720x540].mkv
File size: 2.27 GB
CRC32: e2b69110
MD5: 10a9b3649a3684ce7806f95d3dd6adde
SHA1: 12ff7b1a3e0dad97beb0588cca0e38e3d88a80ed
ED2K: a3a74163f3589390838d8e0a6b0d0bcc


楼主最新资源

资源评论

我要评论

资源评分: 很好 不错 一般 较差 很差
  • 小贴士:

  • 1. 类似“顶”、“沙发”之类没有营养的文字,对勤劳贡献的楼主来说是令人沮丧的反馈信息。
  • 2. 提问之前请再仔细看一遍楼主的说明,或许是您遗漏了。
  • 3. 勿催片。请相信骡友们对分享是富有激情的,如果确有更新版本,您一定能搜索到。
  • 4. 请勿到处挖坑绊人、招贴广告。即占空间让人厌烦,又没人会搭理,于人于己都无利。
  • 如果您发现自己的评论不见了,请参考以上4条。

推荐资源

  • [MKV] 阿姨 My Aunt 2016 全版
点击复制本页面地址给QQ/MSN/Gtalk好友

楼主信息...
更多
你可能喜欢的
关于我们 / 人才招募 / 商务合作 / 版权声明 / / 快手排行榜
分享资源 | 请在遵循创作共用的约定下使用本站内容
©2006-2012 QvoCD.ORG Inc. All rights Reserved.