《序之舞》(Jo no mai)1984[DVDRip/日语/1.42 G/ 中字须另下]【rutracker.org】


总分0.0
  • 评分:0人参与评分
  • 分级: 资源
  • 类型:亚洲电影
  • 格式:[DVDRip]
  • 发行时间:1984年
  • 地区/语言:日本(日语)
  • 统计:2852次 浏览
  • 时间:2017-02-17 00:05:22发布 | 2017-02-17 00:05:22更新

电骡资源

简介

http://www.imdb.com/title/tt0359513/      (7.2/10 from 14 users)



【片源  BT磁力】 

magnet:?xt=urn:btih:d9f22826cc4d0be09a29baaff88e794b8f1c6f66


【百度网盘】 http://pan.baidu.com/s/1o8LNcwy


【中字srt】

https://www.opensubtitles.org/zh/subtitles/6863458/jo-no-mai-zh


【片源转自】

https://rutracker.org/forum/viewtopic.php?t=5241699



序之舞 序の舞 (1984)


导演: 中島貞夫
编剧: 宫尾登美子
主演: 名取裕子 / 岡田茉莉子 / 風間杜夫
类型: 剧情 / 传记
制片国家/地区: 日本
语言: 日语
上映日期: 1984-1-14
片长: 145分钟
又名: 艺海深深  / Jo no mai
剧情:
  明治初年,自幼因家境贫困而被送作养女的岛村势以(岡田茉莉子 饰)似乎绝少得到上天的垂怜,养父母在她20岁左右时去世,丈夫在婚后的第5年也撒手人寰,势以独自经营着养父母的茶店,并辛苦拉扯两个女儿长大。次女津也(名取裕子 饰)自幼喜爱画画,并有着卓越的天赋。在蒙师西内(風間杜夫 饰)和名师高木松溪(佐藤慶 饰)的调教下,津也逐渐在和画界崭露头角,并荣获数项大奖。然而荣耀的同时,她又不得不委身松溪,从此开始了身为女人宿命般的悲剧……


  本片根据小说家宫尾登美子的同名原著改编,并荣获1985年每日电影和蓝丝带奖最佳女配角奖(三田佳子)。  ?豆瓣



【截图】http://pic.yupoo.com/appcht/GepaBnD1/YBKYv.jpg



General
Complete name                  :Jo-no-Mai(1984)Sadao.Nakajima.avi
Format                         : AVI
Format/Info                    : Audio Video Interleave
File size                      : 1.43 GiB
Duration                       : 2h 19mn
Overall bit rate               : 1 468 Kbps
Writing application            : VirtualDubMod 1.5.4.1 (build 2178/release)
Writing library                : VirtualDub-MPEG2 build 24600/release

Video
ID                             : 0
Format                         : MPEG-4 Visual
Format profile                 : Advanced Simple@L5
Format settings, BVOP          : 1
Format settings, QPel          : No
Format settings, GMC           : No warppoints
Format settings, Matrix        : Custom
Codec ID                       : XVID
Codec ID/Hint                  : XviD
Duration                       : 2h 19mn
Bit rate                       : 1 266 Kbps
Width                          : 640 pixels
Height                         : 352 pixels
Display aspect ratio           : 16:9
Frame rate                     : 23.976 fps
Color space                    : YUV
Chroma subsampling             : 4:2:0
Bit depth                      : 8 bits
Scan type                      : Progressive
Compression mode               : Lossy
Bits/(Pixel*Frame)             : 0.234
Stream size                    : 1.23 GiB (86%)
Writing library                : XviD 1.2.1 (UTC 2008-12-04)

Audio
ID                             : 1
Format                         : MPEG Audio
Format version                 : Version 1
Format profile                 : Layer 3
Mode                           : Joint stereo
Mode extension                 : MS Stereo
Codec ID                       : 55
Codec ID/Hint                  : MP3
Duration                       : 2h 19mn
Bit rate mode                  : Constant
Bit rate                       : 192 Kbps
Channel(s)                     : 2 channels
Sampling rate                  : 48.0 KHz
Compression mode               : Lossy
Stream size                    : 191 MiB (13%)
Alignment                      : Aligned on interleaves
Interleave, duration           : 42 ms (1.00 video frame)
Interleave, preload duration   : 504 ms
Writing library                : LAME3.98r
Encoding settings              : -m j -V 4 -q 2 -lowpass 18.6 -b 192




楼主最新资源

资源评论

我要评论

资源评分: 很好 不错 一般 较差 很差
  • 小贴士:

  • 1. 类似“顶”、“沙发”之类没有营养的文字,对勤劳贡献的楼主来说是令人沮丧的反馈信息。
  • 2. 提问之前请再仔细看一遍楼主的说明,或许是您遗漏了。
  • 3. 勿催片。请相信骡友们对分享是富有激情的,如果确有更新版本,您一定能搜索到。
  • 4. 请勿到处挖坑绊人、招贴广告。即占空间让人厌烦,又没人会搭理,于人于己都无利。
  • 如果您发现自己的评论不见了,请参考以上4条。

推荐资源

  • [MKV] 阿姨 My Aunt 2016 全版
点击复制本页面地址给QQ/MSN/Gtalk好友

楼主信息...
更多
你可能喜欢的
关于我们 / 人才招募 / 商务合作 / 版权声明 / / 快手排行榜
分享资源 | 请在遵循创作共用的约定下使用本站内容
©2006-2012 QvoCD.ORG Inc. All rights Reserved.