史黛丝·杜丽:日本未成年色情产业调查.BBC.Stacey.Dooley.Investigates:Young.Sex.For.Sale.In.Japan.2017.HDTV.720p.中英字幕-ONE字幕组


总分0.0
  • 评分:0人参与评分
  • 分级: 资源
  • 类型:欧美电影
  • 格式:[HDTV]
  • 发行时间:2017年
  • 地区/语言:英国(英语)
  • 统计:4474次 浏览
  • 时间:2017-03-08 15:02:20发布 | 2017-03-08 15:02:20更新

电骡资源

简介

http://www.bbc.co.uk/programmes/p04t0h2b



【BT磁力】

magnet:?xt=urn:btih:46d734c1c50a8b53478e471dd919bf7f11e513fe


【百度网盘】

https://pan.baidu.com/share/init?shareid=3866473282&uk=3480845876  提取密码: 3jfp


【BT种子】(按网站提示下载即可)
http://henbt.com/show-46d734c1c50a8b53478e471dd919bf7f11e513fe.html


【资源信息转自】http://www.dysfz.net/movie16950.html


【相关报道】

http://www.bbc.com/zhongwen/trad/world-39095453
BBC記者東京拍少女與性調查紀錄片被扣留
2017年 2月 26日
BBC電視3頻道製片人 Stacey Dooley 在日本拍攝紀錄片期間被東京警察阻止,並被扣留兩小時。



日本未成年色情交易 Stacey Dooley Investigates - Young Sex for Sale in Japan (2017)


导演: BBC
主演: Stacey Dooley
类型: 纪录片
制片国家/地区: 英国
语言: 英语 / 日语
上映日期: 2017-02-28(英国)
片长: 56分钟
又名: 日本:用来出卖的少年情色 / 在日本,那些可以被买卖的儿童色情 / 被出賣的幼年性愛 (台)

简介:

    未成年色情行业在日本的普遍程度令人吃惊,从JK咖啡厅里的女学生到拍软色情的小孩子以及奇葩的日本漫画,在日本这一切都看似非常正常。2014年,日本政府针对未成年色情行业出台了新的法律,但现实中是否有所改变呢?



【截图】http://pic.yupoo.com/appcht/Ghobxyhc/n4eq1.jpg


General
Complete name                  : 史黛丝·杜丽:日本未成年色情产业调查.BBC.Stacey.Dooley.Investigates:Young.Sex.For.Sale.In.Japan.2017.HDTV.720p.中英字幕-ONE字幕组.mp4
Format                         : MPEG-4
Format profile                 : Base Media
Codec ID                       : isom (isom/avc1)
File size                      : 632 MiB
Duration                       : 55 min 45 s
Overall bit rate mode          : Variable
Overall bit rate               : 1 586 kb/s
Encoded date                   : UTC 2017-03-06 15:06:49
Tagged date                    : UTC 2017-03-06 15:06:49

Video
ID                             : 1
Format                         : AVC
Format/Info                    : Advanced Video Codec
Format profile                 : High@L4.1
Format settings, CABAC         : Yes
Format settings, ReFrames      : 3 frames
Codec ID                       : avc1
Codec ID/Info                  : Advanced Video Coding
Duration                       : 55 min 45 s
Bit rate mode                  : Variable
Bit rate                       : 1 200 kb/s
Maximum bit rate               : 31.2 Mb/s
Width                          : 1 280 pixels
Height                         : 720 pixels
Display aspect ratio           : 16:9
Frame rate mode                : Constant
Frame rate                     : 25.000 FPS
Color space                    : YUV
Chroma subsampling             : 4:2:0
Bit depth                      : 8 bits
Scan type                      : Progressive
Bits/(Pixel*Frame)             : 0.052
Stream size                    : 478 MiB (76%)
Writing library                : x264 core 148 r2638 7599210
Encoding settings              : cabac=1 / ref=3 / deblock=1:0:0 / analyse=0x3:0x113 / me=hex / subme=10 / psy=1 / psy_rd=1.00:0.15 / mixed_ref=1 / me_range=16 / chroma_me=1 / trellis=2 / 8x8dct=1 / cqm=0 / deadzone=21,11 / fast_pskip=1 / chroma_qp_offset=-3 / threads=8 / lookahead_threads=1 / sliced_threads=0 / nr=0 / decimate=1 / interlaced=0 / bluray_compat=1 / constrained_intra=0 / bframes=3 / b_pyramid=1 / b_adapt=1 / b_bias=0 / direct=3 / weightb=1 / open_gop=0 / weightp=1 / keyint=250 / keyint_min=1 / scenecut=40 / intra_refresh=0 / rc_lookahead=40 / rc=2pass / mbtree=1 / bitrate=1200 / ratetol=1.0 / qcomp=0.60 / qpmin=0 / qpmax=69 / qpstep=4 / cplxblur=20.0 / qblur=0.5 / vbv_maxrate=31250 / vbv_bufsize=31250 / nal_hrd=vbr / filler=0 / ip_ratio=1.40 / aq=1:1.00
Encoded date                   : UTC 2017-03-06 15:06:49
Tagged date                    : UTC 2017-03-06 15:10:05

Audio
ID                             : 2
Format                         : AC-3
Format/Info                    : Audio Coding 3
Mode extension                 : CM (complete main)
Format settings, Endianness    : Big
Codec ID                       : ac-3
Duration                       : 55 min 44 s
Bit rate mode                  : Constant
Bit rate                       : 384 kb/s
Maximum bit rate               : 406 kb/s
Channel(s)                     : 2 channels
Channel positions              : Front: L R
Sampling rate                  : 48.0 kHz
Frame rate                     : 31.250 FPS (1536 spf)
Bit depth                      : 16 bits
Compression mode               : Lossy
Stream size                    : 153 MiB (24%)
Encoded date                   : UTC 2017-03-06 15:09:49
Tagged date                    : UTC 2017-03-06 15:10:05



史黛丝·杜丽:日本未成年色情产业调查.BBC.Stacey.Dooley.Investigates:Young.Sex.For.Sale.In.Japan.2017.HDTV.720p.中英字幕-ONE字幕组.mp4
File size: 632.28 MB
CRC32: d4eae18b
MD5: 985afd0a866b9f4563901edd41bd8cf6
SHA1: 52bf1417bad34278fc2f1032727f6d851b8c9de4
ED2K: 9228ef1b39d529ca6d1b88cfb23c3df4


楼主最新资源

资源评论

我要评论

资源评分: 很好 不错 一般 较差 很差
  • 小贴士:

  • 1. 类似“顶”、“沙发”之类没有营养的文字,对勤劳贡献的楼主来说是令人沮丧的反馈信息。
  • 2. 提问之前请再仔细看一遍楼主的说明,或许是您遗漏了。
  • 3. 勿催片。请相信骡友们对分享是富有激情的,如果确有更新版本,您一定能搜索到。
  • 4. 请勿到处挖坑绊人、招贴广告。即占空间让人厌烦,又没人会搭理,于人于己都无利。
  • 如果您发现自己的评论不见了,请参考以上4条。

推荐资源

点击复制本页面地址给QQ/MSN/Gtalk好友

楼主信息...
更多
你可能喜欢的
关于我们 / 人才招募 / 商务合作 / 版权声明 / / 快手排行榜
分享资源 | 请在遵循创作共用的约定下使用本站内容
©2006-2012 QvoCD.ORG Inc. All rights Reserved.