弟弟.日本.市川崑.Younger.Brother.1960.BD.MiniSD-TLF


总分0.0
  • 评分:0人参与评分
  • 分级: 资源
  • 类型:
  • 格式:[MKV]
  • 发行时间:1960年
  • 地区/语言:日本(日语)
  • 统计:1666次 浏览
  • 时间:2017-04-17 20:39:29发布 | 2017-04-17 20:39:29更新

电骡资源

简介

http://www.imdb.com/title/tt0054151/             (7.1/10 from 215 users)



【BT磁力】

magnet:?xt=urn:btih:cc07aa179e5247448784f041794b6403acf7900c


【百度网盘】  http://pan.baidu.com/s/1mhD64nm



弟弟 おとうと (1960)


导演: 市川昆
编剧: 水木洋子
主演: 岸恵子 / 川口浩 / 田中絹代 / 森雅之 / 岸田今日子
类型: 剧情
制片国家/地区: 日本
语言: 日语
上映日期: 1960-11-01(日本)
片长: 98 分钟
又名: 兄弟 / Ot?to / Her Brother

剧情:


   16岁的碧郎(川口浩 饰)生长在一个信奉天主教的家庭。父亲(森雅之 饰)是个不出名作家,每天奋笔疾书,不问家事;继母(田中絹代 饰)患手足风湿痛,长年卧病在床。所有的家务都落在长女阿玄(岸恵子 饰)一人身上。青春孟浪的碧郎不理解姐姐的辛苦,成天抱怨寒酸的家境和饭菜。他 在学校无心学业,或者打架斗殴,或者结伴偷窃,最终被学校除名。转入新校的碧郎继续玩乐的生活,桌球、骑马、赛艇,不仅增加了家中的压力,还令姐姐担心不已。


   17岁那年,碧郎被诊断出患有肺结核。时光将尽,他才懂得珍惜身边的亲人……
  

本片根据幸田文同名小说改编,并荣获1961年蓝丝带奖最佳女主角(岸恵子)、最佳摄影、最佳影片、最佳导演等四个奖项,以及1961年戛纳电影节影片技术大奖荣誉奖;1961年电影旬报最佳导演和最佳影片;1961年每日电影奖最佳女主角、最佳艺术指导、最佳摄影、最佳导演、最佳影片、最佳男配角和最佳女配角等七项大奖。  ?豆瓣



【截图】    http://pic.yupoo.com/appcht/GmORQXvS/8EGAF.jpg


General
Unique ID                      : 208031891095088857442188864637545041808 (0x9C817C1EC9285825AC0A82C497C94F90)
Complete name                  : 弟弟.日本.市川崑.Younger.Brother.1960.BD.MiniSD-TLF\[弟弟].Younger.Brother.1960.BD.MiniSD-TLF.mkv
Format                         : Matroska
Format version                 : Version 4 / Version 2
File size                      : 558 MiB
Duration                       : 1 h 38 min
Overall bit rate               : 792 kb/s
Movie name                     : YiFan @ WiKi
Encoded date                   : UTC 2017-02-04 10:29:55
Writing application            : mkvmerge v9.6.0 ('Slave To Your Mind') 64bit
Writing library                : libebml v1.3.4 + libmatroska v1.4.5

Video
ID                             : 1
Format                         : AVC
Format/Info                    : Advanced Video Codec
Format profile                 : High@L3.2
Format settings, CABAC         : Yes
Format settings, ReFrames      : 12 frames
Codec ID                       : V_MPEG4/ISO/AVC
Duration                       : 1 h 37 min
Bit rate                       : 740 kb/s
Width                          : 960 pixels
Height                         : 402 pixels
Display aspect ratio           : 2.40:1
Frame rate mode                : Constant
Frame rate                     : 23.976 (24000/1001) FPS
Color space                    : YUV
Chroma subsampling             : 4:2:0
Bit depth                      : 8 bits
Scan type                      : Progressive
Bits/(Pixel*Frame)             : 0.080
Stream size                    : 517 MiB (93%)
Title                          : Younger.Brother.1960.720p.BluRay.x264-WiKi
Writing library                : x264 core 148 r2744 b97ae06
Encoding settings              : cabac=1 / ref=12 / deblock=1:-1:-1 / analyse=0x3:0x133 / me=umh / subme=9 / psy=1 / psy_rd=1.05:0.10 / mixed_ref=1 / me_range=16 / chroma_me=1 / trellis=2 / 8x8dct=1 / cqm=0 / deadzone=21,11 / fast_pskip=1 / chroma_qp_offset=-3 / threads=6 / lookahead_threads=1 / sliced_threads=0 / nr=0 / decimate=1 / interlaced=0 / bluray_compat=0 / constrained_intra=0 / bframes=10 / b_pyramid=2 / b_adapt=2 / b_bias=0 / direct=3 / weightb=1 / open_gop=0 / weightp=2 / keyint=240 / keyint_min=23 / scenecut=40 / intra_refresh=0 / rc=crf / mbtree=0 / crf=21.5 / qcomp=0.70 / qpmin=0 / qpmax=69 / qpstep=4 / ip_ratio=1.40 / pb_ratio=1.30 / aq=1:0.73
Default                        : Yes
Forced                         : No

Audio
ID                             : 2
Format                         : AAC
Format/Info                    : Advanced Audio Codec
Format profile                 : HE-AAC / LC
Codec ID                       : A_AAC
Duration                       : 1 h 37 min
Bit rate                       : 55.4 kb/s
Channel(s)                     : 2 channels
Channel positions              : Front: L R
Sampling rate                  : 48.0 kHz / 24.0 kHz
Frame rate                     : 23.438 FPS (1024 spf)
Compression mode               : Lossy
Delay relative to video        : 31 ms
Stream size                    : 38.7 MiB (7%)
Title                          : 日语
Language                       : Japanese
Default                        : Yes
Forced                         : No

Text #1
ID                             : 3
Format                         : UTF-8
Codec ID                       : S_TEXT/UTF8
Codec ID/Info                  : UTF-8 Plain Text
Duration                       : 1 h 38 min
Bit rate                       : 51 b/s
Count of elements              : 1562
Stream size                    : 37.4 KiB (0%)
Title                          : 简体
Language                       : Chinese
Default                        : Yes
Forced                         : No

Text #2
ID                             : 4
Format                         : UTF-8
Codec ID                       : S_TEXT/UTF8
Codec ID/Info                  : UTF-8 Plain Text
Duration                       : 1 h 38 min
Bit rate                       : 51 b/s
Count of elements              : 1562
Stream size                    : 37.4 KiB (0%)
Title                          : 繁体
Language                       : Chinese
Default                        : No
Forced                         : No




[弟弟].Younger.Brother.1960.BD.MiniSD-TLF.mkv
File size: 557.64 MB
CRC32: 99a22df1
MD5: ae1c482f380812d7ae391de8d69dc3dc
SHA1: 402bc135e38957235169d8ddb121da2225fb5825
ED2K: 96052084484324f3feb44e2cc3f005b8


楼主最新资源

资源评论

我要评论

资源评分: 很好 不错 一般 较差 很差
  • 小贴士:

  • 1. 类似“顶”、“沙发”之类没有营养的文字,对勤劳贡献的楼主来说是令人沮丧的反馈信息。
  • 2. 提问之前请再仔细看一遍楼主的说明,或许是您遗漏了。
  • 3. 勿催片。请相信骡友们对分享是富有激情的,如果确有更新版本,您一定能搜索到。
  • 4. 请勿到处挖坑绊人、招贴广告。即占空间让人厌烦,又没人会搭理,于人于己都无利。
  • 如果您发现自己的评论不见了,请参考以上4条。

推荐资源

  • [MKV] 阿姨 My Aunt 2016 全版
点击复制本页面地址给QQ/MSN/Gtalk好友

楼主信息...
更多
你可能喜欢的
关于我们 / 人才招募 / 商务合作 / 版权声明 / / 快手排行榜
分享资源 | 请在遵循创作共用的约定下使用本站内容
©2006-2012 QvoCD.ORG Inc. All rights Reserved.